HDTV 58th Annual Grammy Awards 2016 (TNT.HD.1080i.DD5.1.Audio.Latino).-Crusha

Discussion in 'HD Live Performances' started by Crusha, Feb 16, 2016.

  1. alvin

    alvin Member

    Joined:
    May 11, 2014
    Messages:
    197
    Likes Received:
    11
    thank
     
  2. betoxky

    betoxky Active Member

    Joined:
    Feb 3, 2014
    Messages:
    172
    Likes Received:
    192
    thank youu
     
  3. neoncummings

    neoncummings Member

    Joined:
    Jan 26, 2016
    Messages:
    133
    Likes Received:
    13
    ,n,mn,n
     
  4. Louis

    Louis Member

    Joined:
    Nov 2, 2014
    Messages:
    50
    Likes Received:
    2
    Thank UU
     
  5. pipoyuc

    pipoyuc New Member

    Joined:
    Feb 17, 2016
    Messages:
    1
    Likes Received:
    0
    Thank you
     
  6. Rafahack

    Rafahack Member

    Joined:
    Feb 1, 2016
    Messages:
    148
    Likes Received:
    10
    thanks!
     
  7. burichan

    burichan New Member

    Joined:
    Feb 17, 2016
    Messages:
    9
    Likes Received:
    1
    [​IMG]
    [​IMG]
    [​IMG]
    [​IMG]
    [​IMG]
    [​IMG]
    [​IMG]
    [​IMG]
    [​IMG]
    [​IMG]
    [​IMG]


    Mediainfo
    General
    ID : 1 (0x1)
    Complete name : 58th Annual Grammy Awards 2016 (TNT.HD.1080i.DD5.1.Audio.Latino).-Crusha.ts
    Format : MPEG-TS
    File size : 3.78 GiB
    Duration : 2h 33mn
    Overall bit rate mode : Variable
    Overall bit rate : 3 531 Kbps

    Video
    ID : 2020 (0x7E4)
    Menu ID : 848 (0x350)
    Format : AVC
    Format/Info : Advanced Video Codec
    Format profile : [email protected]
    Format settings, CABAC : Yes
    Format settings, ReFrames : 4 frames
    Format settings, GOP : M=8, N=32
    Codec ID : 27
    Duration : 2h 33mn
    Bit rate : 2 968 Kbps
    Width : 1 920 pixels
    Height : 1 080 pixels
    Display aspect ratio : 16:9
    Frame rate : 29.970 fps
    Standard : Component
    Color space : YUV
    Chroma subsampling : 4:2:0
    Bit depth : 8 bits
    Scan type : MBAFF
    Scan order : Top Field First
    Bits/(Pixel*Frame) : 0.048
    Stream size : 3.18 GiB (84%)
    Color range : Limited
    Color primaries : BT.709
    Transfer characteristics : BT.709
    Matrix coefficients : BT.709

    Audio
    ID : 3020 (0xBCC)
    Menu ID : 848 (0x350)
    Format : AC-3
    Format/Info : Audio Coding 3
    Mode extension : CM (complete main)
    Format settings, Endianness : Big
    Codec ID : 6
    Duration : 2h 33mn
    Bit rate mode : Constant
    Bit rate : 384 Kbps
    Channel(s) : 6 channels
    Channel positions : Front: L C R, Side: L R, LFE
    Sampling rate : 48.0 KHz
    Bit depth : 16 bits
    Compression mode : Lossy
    Stream size : 421 MiB (11%)
    Language : English
    ***Hidden content cannot be quoted.***

    Password:
    crusha[/QUOTE]
     
    Withered Flower likes this.
  8. hungquocphan

    hungquocphan Member

    Joined:
    Nov 1, 2013
    Messages:
    433
    Likes Received:
    9
    thank for share
     
  9. KatieJ383

    KatieJ383 New Member

    Joined:
    Dec 20, 2014
    Messages:
    17
    Likes Received:
    4
    Thank you!
     
  10. elcolix1970

    elcolix1970 Member

    Joined:
    Feb 18, 2016
    Messages:
    34
    Likes Received:
    0
    thank for hi
     
  11. kwanleekwan

    kwanleekwan Member

    Joined:
    May 18, 2015
    Messages:
    46
    Likes Received:
    1
    Thank you very much
     
  12. Withered Flower

    Withered Flower New Member

    Joined:
    Feb 6, 2016
    Messages:
    12
    Likes Received:
    1
  13. lebritishpounds

    lebritishpounds Member

    Joined:
    Oct 8, 2014
    Messages:
    94
    Likes Received:
    8
  14. Donkey123

    Donkey123 Member

    Joined:
    May 4, 2014
    Messages:
    135
    Likes Received:
    4
    thank u
     
  15. TzoyBe

    TzoyBe Member

    Joined:
    Nov 24, 2015
    Messages:
    169
    Likes Received:
    4
    thxxxxxxxxxxxx
     
  16. zemino

    zemino Member

    Joined:
    Apr 26, 2014
    Messages:
    113
    Likes Received:
    1
    thank you~
     
  17. multimediafm

    multimediafm Well-Known Member Donor

    Joined:
    Mar 27, 2014
    Messages:
    8,058
    Likes Received:
    320
    Thanks :)
    HDTV 58th Annual Grammy Awards 2016 (TNT.HD.1080i.DD5.1.Audio.Latino).-Crusha
     
  18. gotiko19

    gotiko19 Member

    Joined:
    Oct 27, 2013
    Messages:
    213
    Likes Received:
    15
  19. gotiko19

    gotiko19 Member

    Joined:
    Oct 27, 2013
    Messages:
    213
    Likes Received:
    15
    gracias por fin traduccion
     
  20. rkn9

    rkn9 Well-Known Member

    Joined:
    Jan 9, 2016
    Messages:
    1,555
    Likes Received:
    30
    oleeeeeeeee