HDTV 58th Annual Grammy Awards 2016 (TNT.HD.1080i.DD5.1.Audio.Latino).-Crusha

Discussion in 'HD Live Performances' started by Crusha, Feb 16, 2016.

  1. Crusha

    Crusha Well-Known Member Capper

    Joined:
    Oct 15, 2014
    Messages:
    2,350
    Likes Received:
    2,365
    [​IMG]
    [​IMG]
    [​IMG]
    [​IMG]
    [​IMG]
    [​IMG]
    [​IMG]
    [​IMG]
    [​IMG]
    [​IMG]
    [​IMG]

    Mediainfo
    General
    ID : 1 (0x1)
    Complete name : 58th Annual Grammy Awards 2016 (TNT.HD.1080i.DD5.1.Audio.Latino).-Crusha.ts
    Format : MPEG-TS
    File size : 3.78 GiB
    Duration : 2h 33mn
    Overall bit rate mode : Variable
    Overall bit rate : 3 531 Kbps

    Video
    ID : 2020 (0x7E4)
    Menu ID : 848 (0x350)
    Format : AVC
    Format/Info : Advanced Video Codec
    Format profile : [email protected]
    Format settings, CABAC : Yes
    Format settings, ReFrames : 4 frames
    Format settings, GOP : M=8, N=32
    Codec ID : 27
    Duration : 2h 33mn
    Bit rate : 2 968 Kbps
    Width : 1 920 pixels
    Height : 1 080 pixels
    Display aspect ratio : 16:9
    Frame rate : 29.970 fps
    Standard : Component
    Color space : YUV
    Chroma subsampling : 4:2:0
    Bit depth : 8 bits
    Scan type : MBAFF
    Scan order : Top Field First
    Bits/(Pixel*Frame) : 0.048
    Stream size : 3.18 GiB (84%)
    Color range : Limited
    Color primaries : BT.709
    Transfer characteristics : BT.709
    Matrix coefficients : BT.709

    Audio
    ID : 3020 (0xBCC)
    Menu ID : 848 (0x350)
    Format : AC-3
    Format/Info : Audio Coding 3
    Mode extension : CM (complete main)
    Format settings, Endianness : Big
    Codec ID : 6
    Duration : 2h 33mn
    Bit rate mode : Constant
    Bit rate : 384 Kbps
    Channel(s) : 6 channels
    Channel positions : Front: L C R, Side: L R, LFE
    Sampling rate : 48.0 KHz
    Bit depth : 16 bits
    Compression mode : Lossy
    Stream size : 421 MiB (11%)
    Language : English

    Hidden Content:
    You must reply before you can see the hidden data contained here.
    Password:
    crusha
     
  2. Loading...


  3. tom ace

    tom ace Member

    Joined:
    Dec 4, 2014
    Messages:
    138
    Likes Received:
    3
    thank you
     
  4. abdi

    abdi Well-Known Member V . I . P. Uploader

    Joined:
    Sep 23, 2014
    Messages:
    2,261
    Likes Received:
    8,359
    Yassss
    thank you for this :)
     
  5. abdi

    abdi Well-Known Member V . I . P. Uploader

    Joined:
    Sep 23, 2014
    Messages:
    2,261
    Likes Received:
    8,359
    btw this video just latino audio ? @Crusha
     
  6. NayNay

    NayNay Member

    Joined:
    Oct 4, 2015
    Messages:
    222
    Likes Received:
    2
    Thanks
     
  7. Wiz

    Wiz Member

    Joined:
    Apr 11, 2014
    Messages:
    46
    Likes Received:
    1
    thanks!
     
  8. Crusha

    Crusha Well-Known Member Capper

    Joined:
    Oct 15, 2014
    Messages:
    2,350
    Likes Received:
    2,365
    Yes, Español Latino.
    Unfortunately the operator does not have SAP(English) . :(
     
  9. nernox

    nernox Member Capper

    Joined:
    Nov 25, 2013
    Messages:
    102
    Likes Received:
    530
    Thank you :):love:
     
  10. Crusha

    Crusha Well-Known Member Capper

    Joined:
    Oct 15, 2014
    Messages:
    2,350
    Likes Received:
    2,365
    Today repeat (english full version) but with subtitles, at night I will upload a new cap.
     
  11. abdi

    abdi Well-Known Member V . I . P. Uploader

    Joined:
    Sep 23, 2014
    Messages:
    2,261
    Likes Received:
    8,359
    O well, I am waiting for english ver full show
     
    Crusha likes this.
  12. p3an1997

    p3an1997 Member

    Joined:
    Feb 14, 2014
    Messages:
    50
    Likes Received:
    6
    tks .
     
  13. abdi

    abdi Well-Known Member V . I . P. Uploader

    Joined:
    Sep 23, 2014
    Messages:
    2,261
    Likes Received:
    8,359
    Can you edit your reply please? delete the full quote @dniel111
     
  14. onehandfeel

    onehandfeel Member

    Joined:
    Dec 16, 2013
    Messages:
    179
    Likes Received:
    9
    thank you
     
  15. killers23

    killers23 Active Member

    Joined:
    Feb 27, 2015
    Messages:
    541
    Likes Received:
    71
    thanks for sharing
     
  16. z3with6pack

    z3with6pack Member

    Joined:
    Oct 11, 2015
    Messages:
    295
    Likes Received:
    10
    Thank You for this!
     
  17. Hyrus

    Hyrus Arianator / Selenator / Victorian / Saxobeat / LBS Donor

    Joined:
    Feb 9, 2015
    Messages:
    1,196
    Likes Received:
    815
    Thanks a lot for sharing @Crusha I'll wait for the English version though; the reason is that on the Spanish version of the American Music Awards you uploaded a couple months ago the audio on the performances was a bit out of sync. I'm pretty sure it's not your fault, I blame TNT :p
    And I prefer the original audio :)
     
  18. thefrankox

    thefrankox New Member

    Joined:
    Feb 16, 2016
    Messages:
    11
    Likes Received:
    0
    Muchas gracias, a disfrutar un rato con los grammy
     
  19. ialmostdo

    ialmostdo Member

    Joined:
    Feb 21, 2014
    Messages:
    49
    Likes Received:
    0
  20. theresidentm

    theresidentm New Member

    Joined:
    Jan 14, 2016
    Messages:
    20
    Likes Received:
    0
    thank you
     
  21. marysd

    marysd New Member

    Joined:
    Dec 20, 2015
    Messages:
    5
    Likes Received:
    0
    thank you