50 Cent - Window Shopper (PARAMOUNTHD-1080i-DD2.0-Crusha)

Discussion in 'PARAMOUNT' started by Crusha, Mar 23, 2016.

  1. Crusha

    Crusha Well-Known Member Capper V . I . P.

    Joined:
    Oct 15, 2014
    Messages:
    2,358
    Likes Received:
    2,649
    [​IMG]

    Mediainfo
    General
    ID : 1 (0x1)
    Complete name : 50 Cent - Window Shopper (PARAMOUNT.HD.1080i.DD2.0).-Crusha.ts
    Format : MPEG-TS
    File size : 96.4 MiB
    Duration : 3mn 36s
    Overall bit rate mode : Variable
    Overall bit rate : 3 728 Kbps

    Video
    ID : 2834 (0xB12)
    Menu ID : 1523 (0x5F3)
    Format : AVC
    Format/Info : Advanced Video Codec
    Format profile : [email protected]
    Format settings, CABAC : Yes
    Format settings, ReFrames : 4 frames
    Codec ID : 27
    Duration : 3mn 36s
    Bit rate : 3 350 Kbps
    Width : 1 920 pixels
    Height : 1 080 pixels
    Display aspect ratio : 16:9
    Frame rate : 29.970 fps
    Standard : Component
    Color space : YUV
    Chroma subsampling : 4:2:0
    Bit depth : 8 bits
    Scan type : MBAFF
    Scan order : Top Field First
    Bits/(Pixel*Frame) : 0.054
    Stream size : 86.6 MiB (90%)
    Color range : Limited
    Color primaries : BT.709
    Transfer characteristics : BT.709
    Matrix coefficients : BT.709

    Audio
    ID : 3760 (0xEB0)
    Menu ID : 1523 (0x5F3)
    Format : AC-3
    Format/Info : Audio Coding 3
    Mode extension : CM (complete main)
    Format settings, Endianness : Big
    Codec ID : 6
    Duration : 3mn 36s
    Bit rate mode : Constant
    Bit rate : 192 Kbps
    Channel(s) : 2 channels
    Channel positions : Front: L R
    Sampling rate : 48.0 KHz
    Bit depth : 16 bits
    Compression mode : Lossy
    Stream size : 4.96 MiB (5%)
    Language : Spanish
    Hidden Content:
    You must reply before you can see the hidden data contained here.
    Password:
    crusha
     
  2. Crusha

    Crusha Well-Known Member Capper V . I . P.

    Joined:
    Oct 15, 2014
    Messages:
    2,358
    Likes Received:
    2,649
    I'm back friends :)
    --------------------
    He vuelto amigos :)
     
  3. seregil

    seregil Member

    Joined:
    Sep 5, 2014
    Messages:
    103
    Likes Received:
    1
    thanks
     
  4. tf135

    tf135 Well-Known Member

    Joined:
    Nov 14, 2014
    Messages:
    2,492
    Likes Received:
    162
    thank you
     
  5. 123

    123 Member

    Joined:
    Jun 22, 2016
    Messages:
    195
    Likes Received:
    3
    thankss
     
  6. tapions

    tapions Active Member

    Joined:
    Aug 30, 2016
    Messages:
    909
    Likes Received:
    77
    gracias
     
  7. ALI.pit

    ALI.pit New Member

    Joined:
    Sep 6, 2016
    Messages:
    18
    Likes Received:
    0
    ♥♥♥♥♥♥♥
     
  8. CristianMatias

    CristianMatias HIGH DEFINITION

    Joined:
    Sep 17, 2016
    Messages:
    827
    Likes Received:
    21
  9. CristianMatias

    CristianMatias HIGH DEFINITION

    Joined:
    Sep 17, 2016
    Messages:
    827
    Likes Received:
    21
  10. Praveen867

    Praveen867 Member

    Joined:
    Nov 14, 2016
    Messages:
    598
    Likes Received:
    10
    thank you so much
     
  11. zorgs777

    zorgs777 Member

    Joined:
    Feb 18, 2017
    Messages:
    67
    Likes Received:
    0
    thank you so much
     
  12. Shadizz

    Shadizz New Member

    Joined:
    Apr 14, 2017
    Messages:
    20
    Likes Received:
    0
    Thank you
     
  13. DiVenturas

    DiVenturas Well-Known Member

    Joined:
    Oct 21, 2015
    Messages:
    2,733
    Likes Received:
    139
  14. erroljr1977

    erroljr1977 Member

    Joined:
    Apr 18, 2017
    Messages:
    440
    Likes Received:
    11
  15. brownbradpitt613

    brownbradpitt613 Member

    Joined:
    Sep 3, 2017
    Messages:
    635
    Likes Received:
    6
    love this!
     
  16. ivanbrankovic

    ivanbrankovic New Member

    Joined:
    Dec 25, 2016
    Messages:
    11
    Likes Received:
    0
    thank's again!
     
  17. ildson

    ildson Member

    Joined:
    Nov 4, 2017
    Messages:
    256
    Likes Received:
    12
    thanks