50 Cent feat. Olivia - Candy Shop (VIVAHD-1080i-DD2.0-Djodjara)-HDMania

Discussion in 'VIVA HD' started by Djodjara, Sep 18, 2014.

  1. Djodjara

    Djodjara Gwen Fan Capper

    Joined:
    Sep 6, 2014
    Messages:
    757
    Likes Received:
    1,361
    50 Cent feat. Olivia - Candy Shop (VIVA HD 1080i - Djodjara)

    [​IMG]
    [​IMG]

    General:
    ID : 0 (0x0)
    Format : MPEG-TS
    File size : 268 MiB
    Duration : 4mn 9s
    Overall bit rate mode : Variable
    Overall bit rate : 9 016 Kbps

    Video:
    ID : 4113 (0x1011)
    Menu ID : 1 (0x1)
    Format : AVC
    Format/Info : Advanced Video Codec
    Format profile : [email protected]
    Format settings, CABAC : Yes
    Format settings, ReFrames : 3 frames
    Codec ID : 27
    Duration : 4mn 9s
    Bit rate : 8 458 Kbps
    Width : 1 920 pixels
    Height : 1 080 pixels
    Display aspect ratio : 16:9
    Frame rate : 25.000 fps
    Color space : YUV
    Chroma subsampling : 4:2:0
    Bit depth : 8 bits
    Scan type : Interlaced
    Bits/(Pixel*Frame) : 0.163
    Stream size : 251 MiB (94%)
    Color primaries : BT.709
    Transfer characteristics : BT.709
    Matrix coefficients : BT.709

    Audio:
    ID : 4352 (0x1100)
    Menu ID : 1 (0x1)
    Format : AC-3
    Format/Info : Audio Coding 3
    Mode extension : HI (hearing impaired)
    Format settings, Endianness : Big
    Codec ID : 129
    Duration : 4mn 9s
    Bit rate mode : Constant
    Bit rate : 192 Kbps
    Channel count : 2 channels
    Channel positions : Front: L R
    Sampling rate : 48.0 KHz
    Bit depth : 16 bits
    Compression mode : Lossy
    Stream size : 5.71 MiB (2%)

    Hidden Content:
    You must reply before you can see the hidden data contained here.
     
    rdog, lyana94, ramazanedvard and 7 others like this.
  2. Loading...


  3. tsm897

    tsm897 Member

    Joined:
    Apr 16, 2014
    Messages:
    136
    Likes Received:
    4
  4. ytyh

    ytyh Member

    Joined:
    Mar 30, 2014
    Messages:
    432
    Likes Received:
    4
    Thanks
     
  5. franklele

    franklele Well-Known Member

    Joined:
    Nov 11, 2013
    Messages:
    2,000
    Likes Received:
    97
    thank you
     
  6. alexandra

    alexandra Member

    Joined:
    May 14, 2014
    Messages:
    46
    Likes Received:
    0
  7. MCTR

    MCTR Active Member

    Joined:
    Feb 23, 2014
    Messages:
    293
    Likes Received:
    35
  8. ddXogo

    ddXogo Member

    Joined:
    May 26, 2014
    Messages:
    295
    Likes Received:
    15
    where is screen ?
     
  9. ericbook

    ericbook Member

    Joined:
    Jan 3, 2014
    Messages:
    202
    Likes Received:
    3
    gracias :D
     
  10. Danilo Martins

    Danilo Martins Member Donor

    Joined:
    Apr 8, 2014
    Messages:
    90
    Likes Received:
    1
  11. pablo palormo

    pablo palormo Member

    Joined:
    Oct 27, 2013
    Messages:
    177
    Likes Received:
    2
  12. alvin

    alvin Member

    Joined:
    May 11, 2014
    Messages:
    254
    Likes Received:
    15
     
  13. Manoel Sampaio

    Manoel Sampaio Member

    Joined:
    Jul 26, 2014
    Messages:
    79
    Likes Received:
    25
    Thanks a lot!
    50 Cent feat. Olivia - Candy Shop (VIVA HD 1080i - Djodjara)

    [​IMG]
    [​IMG]

    General:
    ID : 0 (0x0)
    Format : MPEG-TS
    File size : 268 MiB
    Duration : 4mn 9s
    Overall bit rate mode : Variable
    Overall bit rate : 9 016 Kbps

    Video:
    ID : 4113 (0x1011)
    Menu ID : 1 (0x1)
    Format : AVC
    Format/Info : Advanced Video Codec
    Format profile : [email protected]
    Format settings, CABAC : Yes
    Format settings, ReFrames : 3 frames
    Codec ID : 27
    Duration : 4mn 9s
    Bit rate : 8 458 Kbps
    Width : 1 920 pixels
    Height : 1 080 pixels
    Display aspect ratio : 16:9
    Frame rate : 25.000 fps
    Color space : YUV
    Chroma subsampling : 4:2:0
    Bit depth : 8 bits
    Scan type : Interlaced
    Bits/(Pixel*Frame) : 0.163
    Stream size : 251 MiB (94%)
    Color primaries : BT.709
    Transfer characteristics : BT.709
    Matrix coefficients : BT.709

    Audio:
    ID : 4352 (0x1100)
    Menu ID : 1 (0x1)
    Format : AC-3
    Format/Info : Audio Coding 3
    Mode extension : HI (hearing impaired)
    Format settings, Endianness : Big
    Codec ID : 129
    Duration : 4mn 9s
    Bit rate mode : Constant
    Bit rate : 192 Kbps
    Channel count : 2 channels
    Channel positions : Front: L R
    Sampling rate : 48.0 KHz
    Bit depth : 16 bits
    Compression mode : Lossy
    Stream size : 5.71 MiB (2%)

    ***Hidden content cannot be quoted.***
    [/QUOTE]
     
    ali2013 and Fernanda like this.
  14. arnold

    arnold Member

    Joined:
    Oct 29, 2014
    Messages:
    238
    Likes Received:
    4
    thaanks
     
  15. Thassyo

    Thassyo Well-Known Member

    Joined:
    Oct 9, 2013
    Messages:
    2,251
    Likes Received:
    853
    thanks
     
  16. bodinho

    bodinho Member

    Joined:
    Dec 13, 2014
    Messages:
    120
    Likes Received:
    8
     
  17. gbrielm

    gbrielm Member

    Joined:
    May 3, 2014
    Messages:
    69
    Likes Received:
    2
    thanks
     
  18. Chris

    Chris Member

    Joined:
    Oct 19, 2013
    Messages:
    603
    Likes Received:
    17
    Thank you
     
  19. swarup dutta

    swarup dutta Member

    Joined:
    Dec 29, 2013
    Messages:
    77
    Likes Received:
    1
  20. adam136

    adam136 Member

    Joined:
    Jan 8, 2015
    Messages:
    59
    Likes Received:
    2
    Thanks
     
  21. HDMjuzik

    HDMjuzik Member

    Joined:
    Feb 4, 2015
    Messages:
    59
    Likes Received:
    2
    super cool