3OH!3 ft. Katy Perry - Starstrukk (DD5.1-BluRay-1080P-H264)

Discussion in 'BLU-RAY & BD RIP' started by Dfrazzer, May 23, 2015.

  1. fernandw

    fernandw Member

    Joined:
    Dec 12, 2016
    Messages:
    51
    Likes Received:
    1
    obrigado
     
  2. dmc_xx

    dmc_xx Member

    Joined:
    Nov 27, 2015
    Messages:
    155
    Likes Received:
    2
    thank you very much
     
  3. D3mon86

    D3mon86 Member

    Joined:
    Dec 19, 2016
    Messages:
    440
    Likes Received:
    2
  4. rkn9

    rkn9 Well-Known Member

    Joined:
    Jan 9, 2016
    Messages:
    1,875
    Likes Received:
    31
    oleeeeeeeeee
     
  5. candyman81

    candyman81 Member

    Joined:
    Jan 1, 2017
    Messages:
    69
    Likes Received:
    1
    thanks
     
  6. candyman81

    candyman81 Member

    Joined:
    Jan 1, 2017
    Messages:
    69
    Likes Received:
    1
    thanks
     
  7. Iyoman

    Iyoman New Member

    Joined:
    Jul 2, 2016
    Messages:
    4
    Likes Received:
    0
    Thank you
     
  8. dasboot

    dasboot New Member

    Joined:
    Apr 11, 2014
    Messages:
    25
    Likes Received:
    2
  9. spoophmaniac

    spoophmaniac New Member

    Joined:
    Jan 21, 2017
    Messages:
    6
    Likes Received:
    0
  10. JUNINHOSZ

    JUNINHOSZ Member

    Joined:
    May 23, 2014
    Messages:
    426
    Likes Received:
    10
    gracias!
     
  11. Benjo4Ever

    Benjo4Ever Active Member

    Joined:
    Aug 29, 2016
    Messages:
    213
    Likes Received:
    81
  12. addictedsober

    addictedsober Member

    Joined:
    Jan 25, 2017
    Messages:
    64
    Likes Received:
    7
  13. cb30uk

    cb30uk Member

    Joined:
    Apr 24, 2015
    Messages:
    209
    Likes Received:
    1
    thanks
     
  14. njogadia40

    njogadia40 New Member

    Joined:
    Feb 1, 2017
    Messages:
    2
    Likes Received:
    0
    Thanks
     
  15. hbToxic

    hbToxic Member

    Joined:
    Sep 3, 2016
    Messages:
    70
    Likes Received:
    11
    th
    anks
     
  16. Fernando

    Fernando Member

    Joined:
    Jul 22, 2014
    Messages:
    368
    Likes Received:
    3
  17. drkickass

    drkickass Member

    Joined:
    Nov 7, 2015
    Messages:
    44
    Likes Received:
    1
    thank you
    [​IMG] [​IMG] [​IMG] [​IMG] [​IMG] [​IMG] [​IMG] [​IMG] [​IMG] [​IMG] [​IMG] [​IMG] [​IMG] [​IMG] [​IMG]

    Code:
    General
    ID : 0 (0x0)
    Complete name : C:\Users\Dfrazzer\Desktop\3OH!3 ft. Katy Perry - Starstrukk (DD5.1-BluRay-1080P-H264).m2ts
    Format : BDAV
    Format/Info : Blu-ray Video
    File size : 729 MiB
    Duration : 3mn 46s
    Overall bit rate mode : Variable
    Overall bit rate : 27.0 Mbps
    Maximum Overall bit rate : 48.0 Mbps
    
    Video
    ID : 4113 (0x1011)
    Menu ID : 1 (0x1)
    Format : MPEG Video
    Format version : Version 2
    Format profile : [email protected]
    Format settings, BVOP : Yes
    Format settings, Matrix : Custom
    Format settings, GOP : M=3, N=12
    Codec ID : 2
    Duration : 3mn 46s
    Bit rate mode : Variable
    Bit rate : 25.4 Mbps
    Maximum bit rate : 31.9 Mbps
    Width : 1 920 pixels
    Height : 1 080 pixels
    Display aspect ratio : 16:9
    Frame rate : 23.976 fps
    Standard : Component
    Color space : YUV
    Chroma subsampling : 4:2:0
    Bit depth : 8 bits
    Scan type : Progressive
    Compression mode : Lossy
    Bits/(Pixel*Frame) : 0.512
    Time code of first frame : 00:00:00:00
    Time code source : Group of pictures header
    Stream size : 686 MiB (94%)
    Color primaries : BT.709
    Transfer characteristics : BT.709
    Matrix coefficients : BT.709
    
    Audio
    ID : 4352 (0x1100)
    Menu ID : 1 (0x1)
    Format : AC-3
    Format/Info : Audio Coding 3
    Mode extension : CM (complete main)
    Format settings, Endianness : Big
    Codec ID : 129
    Duration : 3mn 46s
    Bit rate mode : Constant
    Bit rate : 448 Kbps
    Channel(s) : 6 channels
    Channel positions : Front: L C R, Side: L R, LFE
    Sampling rate : 48.0 KHz
    Bit depth : 16 bits
    Compression mode : Lossy
    Stream size : 12.1 MiB (2%)
    
    ***Hidden content cannot be quoted.***

    Credit to original capper.[/QUOTE]
     
  18. ddXogo

    ddXogo Member

    Joined:
    May 26, 2014
    Messages:
    246
    Likes Received:
    12
    mistake in writing the " H264 " here MPEG2
     
  19. littmegalina

    littmegalina Member

    Joined:
    Dec 30, 2016
    Messages:
    37
    Likes Received:
    1
  20. orgulo

    orgulo Member

    Joined:
    Jan 16, 2017
    Messages:
    349
    Likes Received:
    1
    thanks