3OH!3 ft. Katy Perry - Starstrukk (DD5.1-BluRay-1080P-H264)

Discussion in 'BLU-RAY & BD RIP' started by Dfrazzer, May 23, 2015.

  1. Dfrazzer

    Dfrazzer Super Moderator Staff Member Super Moderator Capper V . I . P. Donor

    Joined:
    Nov 4, 2013
    Messages:
    4,501
    Likes Received:
    9,652
    Requested by: thankstome

    [​IMG] [​IMG] [​IMG] [​IMG] [​IMG] [​IMG] [​IMG] [​IMG] [​IMG] [​IMG] [​IMG] [​IMG] [​IMG] [​IMG] [​IMG]

    Code:
    General
    ID : 0 (0x0)
    Complete name : C:\Users\Dfrazzer\Desktop\3OH!3 ft. Katy Perry - Starstrukk (DD5.1-BluRay-1080P-H264).m2ts
    Format : BDAV
    Format/Info : Blu-ray Video
    File size : 729 MiB
    Duration : 3mn 46s
    Overall bit rate mode : Variable
    Overall bit rate : 27.0 Mbps
    Maximum Overall bit rate : 48.0 Mbps
    
    Video
    ID : 4113 (0x1011)
    Menu ID : 1 (0x1)
    Format : MPEG Video
    Format version : Version 2
    Format profile : [email protected]
    Format settings, BVOP : Yes
    Format settings, Matrix : Custom
    Format settings, GOP : M=3, N=12
    Codec ID : 2
    Duration : 3mn 46s
    Bit rate mode : Variable
    Bit rate : 25.4 Mbps
    Maximum bit rate : 31.9 Mbps
    Width : 1 920 pixels
    Height : 1 080 pixels
    Display aspect ratio : 16:9
    Frame rate : 23.976 fps
    Standard : Component
    Color space : YUV
    Chroma subsampling : 4:2:0
    Bit depth : 8 bits
    Scan type : Progressive
    Compression mode : Lossy
    Bits/(Pixel*Frame) : 0.512
    Time code of first frame : 00:00:00:00
    Time code source : Group of pictures header
    Stream size : 686 MiB (94%)
    Color primaries : BT.709
    Transfer characteristics : BT.709
    Matrix coefficients : BT.709
    
    Audio
    ID : 4352 (0x1100)
    Menu ID : 1 (0x1)
    Format : AC-3
    Format/Info : Audio Coding 3
    Mode extension : CM (complete main)
    Format settings, Endianness : Big
    Codec ID : 129
    Duration : 3mn 46s
    Bit rate mode : Constant
    Bit rate : 448 Kbps
    Channel(s) : 6 channels
    Channel positions : Front: L C R, Side: L R, LFE
    Sampling rate : 48.0 KHz
    Bit depth : 16 bits
    Compression mode : Lossy
    Stream size : 12.1 MiB (2%)
    
    Hidden Content:
    You must reply before you can see the hidden data contained here.
    Credit to original capper.
     
  2. Loading...


  3. nn_rod

    nn_rod Member

    Joined:
    Aug 1, 2014
    Messages:
    577
    Likes Received:
    8
    thank u
     
  4. thankstome

    thankstome Well-Known Member

    Joined:
    Feb 6, 2014
    Messages:
    831
    Likes Received:
    1,133
    Thank you very much
     
  5. Djodjara

    Djodjara Gwen Fan Capper

    Joined:
    Sep 6, 2014
    Messages:
    777
    Likes Received:
    1,391
    thank you so much, Dfrazzer! :)
     
  6. MerlinM

    MerlinM Well-Known Member

    Joined:
    Apr 20, 2014
    Messages:
    294
    Likes Received:
    250
    Thank you! :)
     
  7. Gagawuv

    Gagawuv Active Member

    Joined:
    Jun 12, 2014
    Messages:
    526
    Likes Received:
    246
    thank u
     
  8. zhuzhop

    zhuzhop Member

    Joined:
    Mar 17, 2014
    Messages:
    57
    Likes Received:
    3
    thank you
     
  9. franklele

    franklele Well-Known Member

    Joined:
    Nov 11, 2013
    Messages:
    2,061
    Likes Received:
    103
    thank you very much
     
  10. Crusha

    Crusha Well-Known Member Capper

    Joined:
    Oct 15, 2014
    Messages:
    2,350
    Likes Received:
    2,474
    thank you very much :)
     
  11. KallumLavigne

    KallumLavigne Well-Known Member

    Joined:
    Nov 18, 2013
    Messages:
    677
    Likes Received:
    1,292
    thank you
     
  12. Escalade1080p

    Escalade1080p Member

    Joined:
    Nov 20, 2013
    Messages:
    513
    Likes Received:
    14
    Thanks a lot!
     
  13. lucash

    lucash Member

    Joined:
    Nov 25, 2013
    Messages:
    211
    Likes Received:
    14
    thank you
     
  14. mike gunen

    mike gunen Member

    Joined:
    Nov 9, 2013
    Messages:
    837
    Likes Received:
    21
    Thank you
     
  15. kalo

    kalo Member

    Joined:
    May 25, 2015
    Messages:
    380
    Likes Received:
    13
    thank you very much
     
  16. khan

    khan Well-Known Member

    Joined:
    May 11, 2014
    Messages:
    1,249
    Likes Received:
    84
    tnx
     
  17. MCTR

    MCTR Active Member

    Joined:
    Feb 23, 2014
    Messages:
    295
    Likes Received:
    39
    thanks BD
     
  18. Fernanda

    Fernanda Member

    Joined:
    Jan 13, 2014
    Messages:
    112
    Likes Received:
    1
    thank you
     
  19. Sara Flores

    Sara Flores Member

    Joined:
    Jul 5, 2014
    Messages:
    288
    Likes Received:
    14
    thanks so much
     
  20. yporqueno

    yporqueno Member

    Joined:
    Feb 12, 2014
    Messages:
    209
    Likes Received:
    14
     
  21. krest

    krest Member

    Joined:
    May 31, 2015
    Messages:
    269
    Likes Received:
    3
    Thanks so much!!!!!!!!!!!