3OH!3 - Dont Trust Me (MTVNHD) [1080i]

Discussion in 'MTVNHD' started by Pahanich, Feb 9, 2015.

  1. Pahanich

    Pahanich New Member

    Joined:
    Dec 28, 2014
    Messages:
    6
    Likes Received:
    3
    [​IMG]
    Code:
    Format                                   : MPEG-TS
    File size                                : 232 MiB
    Duration                                 : 3mn 27s
    Overall bit rate mode                    : Variable
    Overall bit rate                         : 9 361 Kbps
    
    Video
    ID                                       : 326 (0x146)
    Menu ID                                  : 12106 (0x2F4A)
    Format                                   : AVC
    Format/Info                              : Advanced Video Codec
    Format profile                           : Main@L4.0
    Format settings, CABAC                   : Yes
    Format settings, ReFrames                : 4 frames
    Codec ID                                 : 27
    Duration                                 : 3mn 27s
    Bit rate                                 : 8 511 Kbps
    Width                                    : 1 920 pixels
    Height                                   : 1 080 pixels
    Display aspect ratio                     : 16:9
    Frame rate                               : 25.000 fps
    Color space                              : YUV
    Chroma subsampling                       : 4:2:0
    Bit depth                                : 8 bits
    Scan type                                : Interlaced
    Scan order                               : Top Field First
    Bits/(Pixel*Frame)                       : 0.164
    Stream size                              : 211 MiB (91%)
    Color primaries                          : BT.709
    Transfer characteristics                 : BT.709
    Matrix coefficients                      : BT.709
    Color range                              : Limited
    
    Audio
    ID                                       : 406 (0x196)
    Menu ID                                  : 12106 (0x2F4A)
    Format                                   : AC-3
    Format/Info                              : Audio Coding 3
    Mode extension                           : CM (complete main)
    Format settings, Endianness              : Big
    Codec ID                                 : 6
    Duration                                 : 3mn 27s
    Bit rate mode                            : Constant
    Bit rate                                 : 384 Kbps
    Channel(s)                               : 2 channels
    Channel positions                        : Front: L R
    Sampling rate                            : 48.0 KHz
    Bit depth                                : 16 bits
    Compression mode                         : Lossy
    Delay relative to video                  : 85ms
    Stream size                              : 9.51 MiB (4%)
    Language                                 : English
    Language, more info                      : Clean effects
    Hidden Content:
    You must reply before you can see the hidden data contained here.
     
    aturner18 and Brungor like this.
  2. quake2

    quake2 Well-Known Member

    Joined:
    Oct 11, 2014
    Messages:
    2,020
    Likes Received:
    150
    ok thx
     
  3. jorge7m

    jorge7m Member

    Joined:
    Sep 27, 2014
    Messages:
    28
    Likes Received:
    0
    THNK U
     
  4. jorge7m

    jorge7m Member

    Joined:
    Sep 27, 2014
    Messages:
    28
    Likes Received:
    0
    I CANT EXTRACT THE FILE. ANY SUGGESTIONS? PLEASE HELP
     
  5. thankstome

    thankstome Well-Known Member

    Joined:
    Feb 6, 2014
    Messages:
    1,173
    Likes Received:
    1,650
    thnx a lot
     
  6. Vinny

    Vinny Well-Known Member

    Joined:
    Dec 26, 2013
    Messages:
    4,472
    Likes Received:
    65
    Thank U!
     
  7. Athos

    Athos Active Member

    Joined:
    Dec 28, 2013
    Messages:
    274
    Likes Received:
    175
    thank you
     
  8. revilo18

    revilo18 Well-Known Member

    Joined:
    May 26, 2016
    Messages:
    2,784
    Likes Received:
    184
    THANKKK
     
  9. aabbccd01

    aabbccd01 Member

    Joined:
    Mar 23, 2017
    Messages:
    103
    Likes Received:
    4
    Love this song, though its lyric seems a little...
     
  10. disneyrussianmusic

    disneyrussianmusic Well-Known Member

    Joined:
    Nov 9, 2015
    Messages:
    502
    Likes Received:
    376
    Can someone re-up this video?
     
  11. noriscout

    noriscout Active Member

    Joined:
    Apr 26, 2017
    Messages:
    422
    Likes Received:
    126
    Thanks, friendugan
     
  12. marcelox14

    marcelox14 Active Member

    Joined:
    Jan 8, 2017
    Messages:
    232
    Likes Received:
    53
  13. larzpolanzki

    larzpolanzki Member

    Joined:
    Feb 10, 2014
    Messages:
    601
    Likes Received:
    21
    thanks for video
     
  14. Brungor

    Brungor From The Planet Glamtron

    Joined:
    Dec 9, 2015
    Messages:
    850
    Likes Received:
    464
    Can someone re-up this video pliz?
     
  15. brownbradpitt613

    brownbradpitt613 Active Member

    Joined:
    Sep 3, 2017
    Messages:
    752
    Likes Received:
    30
    t h a n k s
     
  16. aturner18

    aturner18 Well-Known Member

    Joined:
    Oct 2, 2014
    Messages:
    1,962
    Likes Received:
    200
  17. jonjon20

    jonjon20 Member

    Joined:
    Sep 2, 2018
    Messages:
    259
    Likes Received:
    5
    thanks
     
  18. kakaaws

    kakaaws Active Member

    Joined:
    Jan 7, 2017
    Messages:
    332
    Likes Received:
    26
    thanks!!!!!!!!!
     
  19. Thiago Venceslau

    Thiago Venceslau James

    Joined:
    Aug 5, 2019
    Messages:
    221
    Likes Received:
    6
    hhhhhhh
     
  20. sauravd_

    sauravd_ Member

    Joined:
    May 6, 2019
    Messages:
    197
    Likes Received:
    7
    thanks