3OH!3 - Dont Trust Me (MTVNHD) [1080i]

Discussion in 'MTVNHD' started by Pahanich, Feb 9, 2015.

  1. Pahanich

    Pahanich New Member

    Joined:
    Dec 28, 2014
    Messages:
    6
    Likes Received:
    2
    [​IMG]
    Code:
    Format                                   : MPEG-TS
    File size                                : 232 MiB
    Duration                                 : 3mn 27s
    Overall bit rate mode                    : Variable
    Overall bit rate                         : 9 361 Kbps
    
    Video
    ID                                       : 326 (0x146)
    Menu ID                                  : 12106 (0x2F4A)
    Format                                   : AVC
    Format/Info                              : Advanced Video Codec
    Format profile                           : [email protected]
    Format settings, CABAC                   : Yes
    Format settings, ReFrames                : 4 frames
    Codec ID                                 : 27
    Duration                                 : 3mn 27s
    Bit rate                                 : 8 511 Kbps
    Width                                    : 1 920 pixels
    Height                                   : 1 080 pixels
    Display aspect ratio                     : 16:9
    Frame rate                               : 25.000 fps
    Color space                              : YUV
    Chroma subsampling                       : 4:2:0
    Bit depth                                : 8 bits
    Scan type                                : Interlaced
    Scan order                               : Top Field First
    Bits/(Pixel*Frame)                       : 0.164
    Stream size                              : 211 MiB (91%)
    Color primaries                          : BT.709
    Transfer characteristics                 : BT.709
    Matrix coefficients                      : BT.709
    Color range                              : Limited
    
    Audio
    ID                                       : 406 (0x196)
    Menu ID                                  : 12106 (0x2F4A)
    Format                                   : AC-3
    Format/Info                              : Audio Coding 3
    Mode extension                           : CM (complete main)
    Format settings, Endianness              : Big
    Codec ID                                 : 6
    Duration                                 : 3mn 27s
    Bit rate mode                            : Constant
    Bit rate                                 : 384 Kbps
    Channel(s)                               : 2 channels
    Channel positions                        : Front: L R
    Sampling rate                            : 48.0 KHz
    Bit depth                                : 16 bits
    Compression mode                         : Lossy
    Delay relative to video                  : 85ms
    Stream size                              : 9.51 MiB (4%)
    Language                                 : English
    Language, more info                      : Clean effects
    Hidden Content:
    You must reply before you can see the hidden data contained here.
     
    Brungor likes this.
  2. quake2

    quake2 Well-Known Member

    Joined:
    Oct 11, 2014
    Messages:
    1,077
    Likes Received:
    62
    ok thx
     
  3. jorge7m

    jorge7m Member

    Joined:
    Sep 27, 2014
    Messages:
    28
    Likes Received:
    0
    THNK U
     
  4. jorge7m

    jorge7m Member

    Joined:
    Sep 27, 2014
    Messages:
    28
    Likes Received:
    0
    I CANT EXTRACT THE FILE. ANY SUGGESTIONS? PLEASE HELP
     
  5. thankstome

    thankstome Well-Known Member

    Joined:
    Feb 6, 2014
    Messages:
    854
    Likes Received:
    1,177
    thnx a lot
     
  6. Vinny

    Vinny Well-Known Member

    Joined:
    Dec 26, 2013
    Messages:
    3,577
    Likes Received:
    25
    Thank U!
     
  7. Athos

    Athos Active Member

    Joined:
    Dec 28, 2013
    Messages:
    233
    Likes Received:
    109
    thank you
     
  8. revilo18

    revilo18 Well-Known Member

    Joined:
    May 26, 2016
    Messages:
    1,876
    Likes Received:
    85
    THANKKK
     
  9. aabbccd01

    aabbccd01 Member

    Joined:
    Mar 23, 2017
    Messages:
    103
    Likes Received:
    4
    Love this song, though its lyric seems a little...
     
  10. disneyrussianmusic

    disneyrussianmusic Active Member

    Joined:
    Nov 9, 2015
    Messages:
    384
    Likes Received:
    246
    Can someone re-up this video?
     
  11. noriscout

    noriscout Active Member

    Joined:
    Apr 26, 2017
    Messages:
    293
    Likes Received:
    68
    Thanks, friendugan
     
  12. marcelox14

    marcelox14 Member

    Joined:
    Jan 8, 2017
    Messages:
    104
    Likes Received:
    16
  13. larzpolanzki

    larzpolanzki Member

    Joined:
    Feb 10, 2014
    Messages:
    585
    Likes Received:
    17
    thanks for video
     
  14. Brungor

    Brungor ~Thunderfvck~From The Planet Glamtron~

    Joined:
    Dec 9, 2015
    Messages:
    295
    Likes Received:
    91
    Can someone re-up this video pliz?
     
  15. brownbradpitt613

    brownbradpitt613 Member

    Joined:
    Sep 3, 2017
    Messages:
    585
    Likes Received:
    6
    t h a n k s