2NE1 - Park Bom - You and I (GomTv) (HD-1080p)

Discussion in 'GOM TV' started by adam dark, Sep 1, 2016.

  1. adam dark

    adam dark Video Music Lover <3 V . I . P.

    Joined:
    Dec 5, 2013
    Messages:
    2,596
    Likes Received:
    4,706
    2NE1 - Park Bom - You and I (GomTv) (HD-1080p)

    [​IMG]
    [​IMG]
    [​IMG]
    [​IMG]
    [​IMG]
    Code:
    General
    Complete name                  : 2Ne1 - Park Bom - You and I (GomTv) (HD-1080p).avi
    Format                         : AVI
    Format/Info                    : Audio Video Interleave
    File size                      : 330 MiB
    Duration                       : 4 min
    Overall bit rate               : 10.3 Mb/s
    Writing application            : GOM Encoder (GAviWriter 1.0)
    
    Video
    ID                             : 0
    Format                         : MPEG-4 Visual
    Format profile                 : [email protected]
    Format settings, BVOP          : No
    Format settings, QPel          : No
    Format settings, GMC           : No warppoints
    Format settings, Matrix        : Default (H.263)
    Codec ID                       : XVID
    Codec ID/Hint                  : XviD
    Duration                       : 4 min
    Bit rate                       : 10.0 Mb/s
    Width                          : 1 920 pixels
    Height                         : 1 080 pixels
    Display aspect ratio           : 16:9
    Frame rate                     : 29.970 FPS
    Color space                    : YUV
    Chroma subsampling             : 4:2:0
    Bit depth                      : 8 bits
    Scan type                      : Progressive
    Compression mode               : Lossy
    Bits/(Pixel*Frame)             : 0.161
    Stream size                    : 319 MiB (97%)
    Writing library                : Lavc52.10.0
    
    Audio
    ID                             : 1
    Format                         : MPEG Audio
    Format version                 : Version 1
    Format profile                 : Layer 3
    Mode                           : Joint stereo
    Mode extension                 : MS Stereo
    Codec ID                       : 55
    Codec ID/Hint                  : MP3
    Duration                       : 4 min
    Bit rate mode                  : Constant
    Bit rate                       : 320 kb/s
    Channel(s)                     : 2 channels
    Sampling rate                  : 44.1 kHz
    Compression mode               : Lossy
    Stream size                    : 10.2 MiB (3%)
    Alignment                      : Aligned on interleaves
    Interleave, duration           : 26  ms (0.78 video frame)
    Interleave, preload duration   : 52  ms
    Writing library                : LAME3.97 (beta)
    
    


    Hidden Content:
    You must either reply or click 'Like' to see the hidden information contained here.
    Credit to the Original Capper
     
    daring767 and hapiny like this.
  2. Loading...


  3. rus31

    rus31 Member

    Joined:
    May 20, 2016
    Messages:
    349
    Likes Received:
    14
    thanks
     
  4. hapiny

    hapiny Member

    Joined:
    Nov 24, 2014
    Messages:
    550
    Likes Received:
    9
    thank you!
     
  5. daring767

    daring767 Member

    Joined:
    Jun 23, 2017
    Messages:
    72
    Likes Received:
    2
    bbbbb