2NE1 - I Don't Care (GomTV) & 2NE1 - I Don't Care (Baek Kyoung Remix) (GomTV)

Discussion in 'GOM TV' started by adam dark, Nov 15, 2018.

  1. adam dark

    adam dark Video Music Lover <3 V . I . P.

    Joined:
    Dec 5, 2013
    Messages:
    2,853
    Likes Received:
    7,826
    I Don't Care (GomTV)

    [​IMG]
    Code:
    General
    Complete name                  : 2NE1 - I Don't Care (GomTV) HD 720.avi
    Format                         : AVI
    Format/Info                    : Audio Video Interleave
    File size                      : 295 MiB
    Duration                       : 4 min 56 s
    Overall bit rate               : 8 334 kb/s
    Writing application            : GOM Encoder (GAviWriter 1.0)
    
    Video
    ID                             : 0
    Format                         : MPEG-4 Visual
    Format profile                 : Simple@L1
    Format settings, BVOP          : No
    Format settings, QPel          : No
    Format settings, GMC           : No warppoints
    Format settings, Matrix        : Default (H.263)
    Codec ID                       : XVID
    Codec ID/Hint                  : XviD
    Duration                       : 4 min 56 s
    Bit rate                       : 8 002 kb/s
    Width                          : 1 280 pixels
    Height                         : 720 pixels
    Display aspect ratio           : 16:9
    Frame rate                     : 29.970 (30000/1001) FPS
    Color space                    : YUV
    Chroma subsampling             : 4:2:0
    Bit depth                      : 8 bits
    Scan type                      : Progressive
    Compression mode               : Lossy
    Bits/(Pixel*Frame)             : 0.290
    Stream size                    : 283 MiB (96%)
    Writing library                : Lavc52.10.0
    
    Audio
    ID                             : 1
    Format                         : MPEG Audio
    Format version                 : Version 1
    Format profile                 : Layer 3
    Format settings                : Joint stereo / MS Stereo
    Codec ID                       : 55
    Codec ID/Hint                  : MP3
    Duration                       : 4 min 56 s
    Bit rate mode                  : Constant
    Bit rate                       : 320 kb/s
    Channel(s)                     : 2 channels
    Sampling rate                  : 48.0 kHz
    Compression mode               : Lossy
    Stream size                    : 11.3 MiB (4%)
    Alignment                      : Aligned on interleaves
    Interleave, duration           : 24  ms (0.72 video frame)
    Interleave, preload duration   : 47  ms
    Writing library                : LAME3.97 (beta)

    Hidden Content:
    You must reply before you can see the hidden data contained here.
    I Don't Care (Baek Kyoung Remix) (GomTV)-Audio EDIT by me :)

    [​IMG]
    Code:
    General
    Complete name                  : 2NE1 - I Don't Care (Baek Kyoung Remix) (GomTV) HD 720.avi
    Format                         : AVI
    Format/Info                    : Audio Video Interleave
    File size                      : 295 MiB
    Duration                       : 4 min 56 s
    Overall bit rate               : 8 334 kb/s
    Writing application            : VirtualDubMod 1.5.10.3 | www.virtualdub-fr.org || (build 2550/release)
    Writing library                : VirtualDubMod build 2550/release
    
    Video
    ID                             : 0
    Format                         : MPEG-4 Visual
    Format profile                 : Simple@L1
    Format settings, BVOP          : No
    Format settings, QPel          : No
    Format settings, GMC           : No warppoints
    Format settings, Matrix        : Default (H.263)
    Codec ID                       : XVID
    Codec ID/Hint                  : XviD
    Duration                       : 4 min 56 s
    Bit rate                       : 8 002 kb/s
    Width                          : 1 280 pixels
    Height                         : 720 pixels
    Display aspect ratio           : 16:9
    Frame rate                     : 29.970 (30000/1001) FPS
    Color space                    : YUV
    Chroma subsampling             : 4:2:0
    Bit depth                      : 8 bits
    Scan type                      : Progressive
    Compression mode               : Lossy
    Bits/(Pixel*Frame)             : 0.290
    Stream size                    : 283 MiB (96%)
    Writing library                : Lavc52.10.0
    
    Audio
    ID                             : 1
    Format                         : MPEG Audio
    Format version                 : Version 1
    Format profile                 : Layer 3
    Codec ID                       : 55
    Codec ID/Hint                  : MP3
    Duration                       : 4 min 56 s
    Bit rate mode                  : Constant
    Bit rate                       : 320 kb/s
    Channel(s)                     : 2 channels
    Sampling rate                  : 44.1 kHz
    Frame rate                     : 38.281 FPS (1152 SPF)
    Compression mode               : Lossy
    Stream size                    : 11.3 MiB (4%)
    Alignment                      : Split accross interleaves
    Interleave, duration           : 33  ms (1.00 video frame)
    Interleave, preload duration   : 500  ms
    Writing library                : LAME3.99r
    Encoding settings              : -m s -V 4 -q 0 -lowpass 20.5



    Hidden Content:
    You must reply before you can see the hidden data contained here.
     
    nhat4444, popoy13 and rhea like this.
  2. Loading...


  3. UHD4K

    UHD4K Soriel

    Joined:
    Oct 30, 2016
    Messages:
    429
    Likes Received:
    823
    Thank you XD
     
  4. rhea

    rhea Well-Known Member

    Joined:
    Jan 6, 2014
    Messages:
    11,193
    Likes Received:
    2,148
    thank you
     
  5. BetaKsi

    BetaKsi Well-Known Member

    Joined:
    Oct 18, 2015
    Messages:
    3,234
    Likes Received:
    790
    Thank you))
     
  6. mogando668

    mogando668 Member

    Joined:
    May 17, 2018
    Messages:
    134
    Likes Received:
    5
  7. D3mon86

    D3mon86 Active Member

    Joined:
    Dec 19, 2016
    Messages:
    1,118
    Likes Received:
    22
    thanks
     
  8. MandaStarlight

    MandaStarlight Active Member

    Joined:
    Jun 18, 2019
    Messages:
    640
    Likes Received:
    54
  9. nhat4444

    nhat4444 Member

    Joined:
    Sep 28, 2018
    Messages:
    336
    Likes Received:
    9
    Thanks!
     
  10. wrekys

    wrekys Member

    Joined:
    Oct 18, 2019
    Messages:
    304
    Likes Received:
    6
    thanks
     
  11. pakkuen

    pakkuen Member

    Joined:
    Sep 27, 2018
    Messages:
    505
    Likes Received:
    17
    thank la
     
  12. kana3245

    kana3245 Well-Known Member

    Joined:
    Aug 15, 2016
    Messages:
    1,484
    Likes Received:
    73
    thank you
     
  13. imumph

    imumph Member

    Joined:
    Apr 9, 2020
    Messages:
    255
    Likes Received:
    20
    thanks
     
  14. Crimseney101

    Crimseney101 Member

    Joined:
    Mar 22, 2020
    Messages:
    81
    Likes Received:
    1