HDTV 2019.01.12 Channel V [KPOP EXPLOSION] H.264 MP2 1080i

Discussion in 'HD Live Performances' started by WANG RIN, Jan 12, 2019.

  1. WANG RIN

    WANG RIN 콜 미 바이 유어 네임

    Joined:
    Jul 6, 2018
    Messages:
    47
    Likes Received:
    82
    [​IMG]
    Code:
    Format                      : MPEG-TS
    File size                   : 1.22 GiB
    Duration                    : 24 min 50 s
    Overall bit rate mode       : Variable
    Overall bit rate            : 7 029 kb/s
    
    Video
    ID                          : 257 (0x101)
    Menu ID                     : 1 (0x1)
    Format                      : AVC
    Format/Info                 : Advanced Video Codec
    Format profile              : High@L4
    Format settings             : CABAC / 3 Ref Frames
    Format settings, CABAC      : Yes
    Format settings, ReFrames   : 3 frames
    Codec ID                    : 27
    Duration                    : 24 min 51 s
    Bit rate                    : 6 552 kb/s
    Width                       : 1 920 pixels
    Height                      : 1 080 pixels
    Display aspect ratio        : 16:9
    Frame rate                  : 25.000 FPS
    Color space                 : YUV
    Chroma subsampling          : 4:2:0
    Bit depth                   : 8 bits
    Scan type                   : Interlaced
    Scan type, store method     : Separated fields
    Scan order                  : Top Field First
    Bits/(Pixel*Frame)          : 0.126
    Stream size                 : 1.14 GiB (93%)
    Color range                 : Limited
    Color primaries             : BT.709
    Transfer characteristics    : BT.709
    Matrix coefficients         : BT.709
    
    Audio
    ID                          : 258 (0x102)
    Menu ID                     : 1 (0x1)
    Format                      : MPEG Audio
    Format version              : Version 1
    Format profile              : Layer 2
    Codec ID                    : 4
    Duration                    : 24 min 51 s
    Bit rate mode               : Constant
    Bit rate                    : 128 kb/s
    Channel(s)                  : 2 channels
    Sampling rate               : 48.0 kHz
    Frame rate                  : 41.667 FPS (1152 SPF)
    Compression mode            : Lossy
    Delay relative to video     : -16 ms
    Stream size                 : 22.8 MiB (2%)
    
    Menu
    ID                          : 33 (0x21)
    Menu ID                     : 1 (0x1)
    Duration                    : 24 min 50 s
    List                        : 257 (0x101) (AVC) / 258 (0x102) (MPEG Audio)
    Service name                : ChannelV HD
    Service provider            : MyTV
    Service type                : digital television
    
    
    Hidden Content:
    You must reply before you can see the hidden data contained here.

    - Record on 22h in Seoul ^^ (Good stream, no error) :))
     
    rhea and theclimb like this.
  2. Loading...


  3. theclimb

    theclimb Well-Known Member

    Joined:
    Dec 16, 2014
    Messages:
    1,460
    Likes Received:
    235
    Thanks so much! 감사
     
  4. abcdefg

    abcdefg Active Member

    Joined:
    Feb 6, 2018
    Messages:
    320
    Likes Received:
    31
    Thanks
     
  5. frisby

    frisby Well-Known Member

    Joined:
    Nov 21, 2015
    Messages:
    1,759
    Likes Received:
    137
    thanks
     
  6. rhea

    rhea Well-Known Member

    Joined:
    Jan 6, 2014
    Messages:
    8,509
    Likes Received:
    1,237
    thank you