FEED 2018 NBC New Year's Eve with Carson Daly 1080i HDTV Backhaul FLAC 5.1 H.264-TrollHD

Discussion in 'HD Live Performances' started by Ransel, Jan 10, 2019.

  1. Ransel

    Ransel Founder Staff Member AdMiN Uploader

    Joined:
    Oct 1, 2013
    Messages:
    1,336
    Likes Received:
    19,534
    2018 NBC New Year's Eve with Carson Daly
    1080i HDTV Backhaul FLAC 5.1 H.264-TrollHD

    [​IMG]
    [​IMG]
    [​IMG] [​IMG] [​IMG]

    General
    Unique ID : 33164090918013506232083748354098059457 (0x18F32BEC84C6B6C8A2564EE48869D8C1)
    Complete name : 2018 NBC New Year's Eve with Carson Daly 1080i HDTV Backhaul FLAC 5.1 H.264-TrollHD.mkv
    Format : Matroska
    Format version : Version 4 / Version 2
    File size : 11.8 GiB
    Duration : 1 h 23 min
    Overall bit rate mode : Variable
    Overall bit rate : 20.2 Mb/s
    Encoded date : UTC 2019-01-02 23:09:11
    Writing application : mkvmerge v23.0.0 ('The Bride Said No') 64-bit
    Writing library : libebml v1.3.6 + libmatroska v1.4.9

    Video
    ID : 1
    Format : AVC
    Format/Info : Advanced Video Codec
    Format profile : High@L4.1
    Format settings : CABAC / 4 Ref Frames
    Format settings, CABAC : Yes
    Format settings, RefFrames : 4 frames
    Codec ID : V_MPEG4/ISO/AVC
    Duration : 1 h 23 min
    Bit rate : 18.6 Mb/s
    Width : 1 920 pixels
    Height : 1 080 pixels
    Display aspect ratio : 16:9
    Frame rate mode : Variable
    Frame rate : 59.940 (60000/1001) FPS
    Original frame rate : 29.970 (30000/1001) FPS
    Color space : YUV
    Chroma subsampling : 4:2:0
    Bit depth : 8 bits
    Scan type : Interlaced
    Scan type, store method : Separated fields
    Scan order : Top Field First
    Bits/(Pixel*Frame) : 0.149
    Stream size : 10.8 GiB (92%)
    Default : Yes
    Forced : No
    Color range : Limited
    Color primaries : BT.709
    Transfer characteristics : BT.709
    Matrix coefficients : BT.709

    Audio
    ID : 2
    Format : FLAC
    Format/Info : Free Lossless Audio Codec
    Codec ID : A_FLAC
    Duration : 1 h 23 min
    Bit rate mode : Variable
    Bit rate : 1 674 kb/s
    Channel(s) : 6 channels
    Channel positions : Front: L C R, Side: L R, LFE
    Sampling rate : 48.0 kHz
    Frame rate : 11.719 FPS (4096 SPF)
    Bit depth : 16 bits
    Stream size : 1 000 MiB (8%)
    Writing library : libFLAC 1.3.1 (UTC 2014-11-25)
    Language : English
    Default : Yes
    Forced : No

    Text
    ID : 3
    Format : UTF-8
    Codec ID : S_TEXT/UTF8
    Codec ID/Info : UTF-8 Plain Text
    Duration : 1 h 23 min
    Bit rate : 70 b/s
    Count of elements : 1023
    Stream size : 43.0 KiB (0%)
    Language : English
    Default : Yes
    Forced : No

    Download Server - Google Drive
    Hidden Content:
    You must reply before you can see the hidden data contained here.

    Download Server - Zippyshare
    Hidden Content:
    You must reply before you can see the hidden data contained here.
    Requested by @jack_black

    Credits to Capper: TrollHD

    :victory:
     
    Pavulon, ThePixelFarm, curg and 7 others like this.
  2. Loading...


  3. abcdefg

    abcdefg Active Member

    Joined:
    Feb 6, 2018
    Messages:
    391
    Likes Received:
    34
    Thank you
     
  4. detroit1

    detroit1 Well-Known Member

    Joined:
    Jan 6, 2014
    Messages:
    3,425
    Likes Received:
    485
    thank you
     
  5. Adaros

    Adaros Active Member

    Joined:
    Jun 5, 2016
    Messages:
    805
    Likes Received:
    102
    Thanks
     
  6. panaceja56

    panaceja56 Member

    Joined:
    Jan 2, 2017
    Messages:
    154
    Likes Received:
    6
  7. CELOBRAZiL

    CELOBRAZiL Well-Known Member Capper V . I . P. Donor

    Joined:
    Oct 2, 2013
    Messages:
    6,565
    Likes Received:
    20,949
    Thank you so much! :)
     
  8. MarkHorax

    MarkHorax Well-Known Member

    Joined:
    Dec 10, 2016
    Messages:
    651
    Likes Received:
    1,049
    Thank you
     
  9. Antonio Barros

    Antonio Barros Well-Known Member

    Joined:
    Nov 14, 2013
    Messages:
    1,382
    Likes Received:
    286
    thanxxxxxxxxxxxxx
     
  10. Amauri Luiz

    Amauri Luiz Well-Known Member

    Joined:
    Jan 14, 2014
    Messages:
    2,180
    Likes Received:
    96
    Thank you!
     
  11. jeaneyne

    jeaneyne Well-Known Member

    Joined:
    Oct 21, 2013
    Messages:
    1,514
    Likes Received:
    570
  12. MatheK

    MatheK Active Member

    Joined:
    Nov 27, 2013
    Messages:
    496
    Likes Received:
    49
    Thank you!
     
  13. jack_black

    jack_black Well-Known Member

    Joined:
    Feb 16, 2014
    Messages:
    1,110
    Likes Received:
    923
    Thank you!!
     
  14. feet65

    feet65 Well-Known Member

    Joined:
    Nov 12, 2013
    Messages:
    1,769
    Likes Received:
    114
    thanks
     
  15. 3veronicas

    3veronicas Well-Known Member

    Joined:
    Aug 26, 2016
    Messages:
    2,377
    Likes Received:
    131
  16. wilmer ardila

    wilmer ardila Well-Known Member

    Joined:
    Nov 14, 2014
    Messages:
    1,334
    Likes Received:
    69
  17. frisby

    frisby Well-Known Member

    Joined:
    Nov 21, 2015
    Messages:
    1,827
    Likes Received:
    139
    thanks
     
  18. melgar

    melgar Active Member

    Joined:
    Apr 12, 2014
    Messages:
    398
    Likes Received:
    38
    Many Thanks For This
     
  19. azamusic

    azamusic Well-Known Member Capper

    Joined:
    Dec 6, 2013
    Messages:
    930
    Likes Received:
    273
    thank you
     
  20. Romana

    Romana Active Member

    Joined:
    Oct 26, 2013
    Messages:
    761
    Likes Received:
    116
    thank U!!
     
  21. xingshouyi

    xingshouyi Well-Known Member

    Joined:
    Jun 27, 2016
    Messages:
    875
    Likes Received:
    1,197
    Thanks for sharing