FEED 2018 Fox New Year's Eve with Steve Harvey 720p HDTV Backhaul MPA2.0 H.264-TrollHD

Discussion in 'HD Live Performances' started by Ransel, Jan 11, 2019.

  1. Ransel

    Ransel Founder Staff Member AdMiN Uploader

    Joined:
    Oct 1, 2013
    Messages:
    1,336
    Likes Received:
    19,534
    2018 Fox New Year's Eve with Steve Harvey
    720p HDTV Backhaul MPA2.0 H.264-TrollHD

    [​IMG]
    [​IMG] [​IMG] [​IMG] [​IMG]

    General
    Unique ID : 152838686576552421711665532416319760271 (0x72FBA90A5440D72B9F390CF2891B278F)
    Complete name : 2018 Fox New Year's Eve with Steve Harvey 720p HDTV Backhaul MPA2.0 H.264-TrollHD.mkv
    Format : Matroska
    Format version : Version 4 / Version 2
    File size : 37.7 GiB
    Duration : 2 h 33 min
    Overall bit rate : 35.1 Mb/s
    Encoded date : UTC 2019-01-02 21:09:50
    Writing application : mkvmerge v23.0.0 ('The Bride Said No') 64-bit
    Writing library : libebml v1.3.6 + libmatroska v1.4.9

    Video
    ID : 1
    Format : AVC
    Format/Info : Advanced Video Codec
    Format profile : High 4:2:2@L4.1
    Format settings : CABAC / 6 Ref Frames
    Format settings, CABAC : Yes
    Format settings, RefFrames : 6 frames
    Format settings, GOP : M=4, N=32
    Codec ID : V_MPEG4/ISO/AVC
    Duration : 2 h 33 min
    Bit rate : 34.7 Mb/s
    Width : 1 280 pixels
    Height : 720 pixels
    Display aspect ratio : 16:9
    Frame rate mode : Constant
    Frame rate : 59.940 (60000/1001) FPS
    Color space : YUV
    Chroma subsampling : 4:2:2
    Bit depth : 8 bits
    Scan type : Progressive
    Bits/(Pixel*Frame) : 0.629
    Stream size : 37.3 GiB (99%)
    Language : English
    Default : Yes
    Forced : No
    Color range : Limited
    Color primaries : BT.709
    Transfer characteristics : BT.709
    Matrix coefficients : BT.709

    Audio
    ID : 2
    Format : MPEG Audio
    Format version : Version 1
    Format profile : Layer 2
    Codec ID : A_MPEG/L2
    Codec ID/Hint : MP2
    Duration : 2 h 33 min
    Bit rate mode : Constant
    Bit rate : 384 kb/s
    Channel(s) : 2 channels
    Sampling rate : 48.0 kHz
    Frame rate : 41.667 FPS (1152 SPF)
    Compression mode : Lossy
    Stream size : 422 MiB (1%)
    Language : English
    Default : Yes
    Forced : No


    Server Download - Google Drive

    Hidden Content:
    You must reply before you can see the hidden data contained here.

    Server Download - Zippyshare
    Hidden Content:
    You must reply before you can see the hidden data contained here.

    Credits to Capper: TrollHD


    :victory:
     
    Pavulon, Anthony, curg and 8 others like this.
  2. Loading...


  3. Scherzyboy

    Scherzyboy Super Moderator Staff Member Super Moderator V . I . P. Uploader

    Joined:
    May 14, 2015
    Messages:
    1,231
    Likes Received:
    1,425
    OH MY GAAAWWWD THANK YOU SO MUCH I CAN'T BELIEVE IT. BEEN LITERALLY REFRESHING SHAREMANIA EVERY SECOND SINCE JAN 1ST FOR THIS :money::love::money::love:
    THANKS A TRRRRIILLION :victory::super::super:
     
    Ransel likes this.
  4. detroit1

    detroit1 Well-Known Member

    Joined:
    Jan 6, 2014
    Messages:
    3,425
    Likes Received:
    485
    thank you
     
  5. Scherzyboy

    Scherzyboy Super Moderator Staff Member Super Moderator V . I . P. Uploader

    Joined:
    May 14, 2015
    Messages:
    1,231
    Likes Received:
    1,425
  6. 3veronicas

    3veronicas Well-Known Member

    Joined:
    Aug 26, 2016
    Messages:
    2,377
    Likes Received:
    131
    Thanks!
     
  7. Ransel

    Ransel Founder Staff Member AdMiN Uploader

    Joined:
    Oct 1, 2013
    Messages:
    1,336
    Likes Received:
    19,534
    NO, that's all. o_O
     
    Scherzyboy likes this.
  8. Scherzyboy

    Scherzyboy Super Moderator Staff Member Super Moderator V . I . P. Uploader

    Joined:
    May 14, 2015
    Messages:
    1,231
    Likes Received:
    1,425
  9. blackford

    blackford Active Member

    Joined:
    Apr 18, 2017
    Messages:
    436
    Likes Received:
    52
    Thank you
     
  10. s1sav

    s1sav Member

    Joined:
    Feb 27, 2014
    Messages:
    210
    Likes Received:
    13
    Thank you
     
  11. wilmer ardila

    wilmer ardila Well-Known Member

    Joined:
    Nov 14, 2014
    Messages:
    1,335
    Likes Received:
    69
  12. frisby

    frisby Well-Known Member

    Joined:
    Nov 21, 2015
    Messages:
    1,827
    Likes Received:
    139
    thanks
     
  13. melgar

    melgar Active Member

    Joined:
    Apr 12, 2014
    Messages:
    398
    Likes Received:
    38
    Thank You For This
     
  14. Romana

    Romana Active Member

    Joined:
    Oct 26, 2013
    Messages:
    761
    Likes Received:
    116
    thank u!!!!!!!!!
     
  15. Antonio Barros

    Antonio Barros Well-Known Member

    Joined:
    Nov 14, 2013
    Messages:
    1,382
    Likes Received:
    286
    thanxxxxxxxxx
     
  16. Isra

    Isra Member

    Joined:
    Jul 3, 2017
    Messages:
    264
    Likes Received:
    14
    Thanks
     
  17. MarkHorax

    MarkHorax Well-Known Member

    Joined:
    Dec 10, 2016
    Messages:
    651
    Likes Received:
    1,049
    Thank you
     
  18. Bemi Rexhvato

    Bemi Rexhvato Member

    Joined:
    Dec 21, 2018
    Messages:
    60
    Likes Received:
    2
    THANK YOU
     
  19. Lassox

    Lassox Well-Known Member Capper

    Joined:
    Oct 10, 2013
    Messages:
    340
    Likes Received:
    319
    thanks :)
     
  20. Carlos

    Carlos Active Member

    Joined:
    May 4, 2014
    Messages:
    715
    Likes Received:
    59
    thanks
     
  21. jeaneyne

    jeaneyne Well-Known Member

    Joined:
    Oct 21, 2013
    Messages:
    1,514
    Likes Received:
    570